<?xml version="1.0" standalone="no"?>
<!DOCTYPE svg PUBLIC "-//W3C//DTD SVG 1.1//EN" "http://www.w3.org/Graphics/SVG/1.1/DTD/svg11.dtd" >
<svg xmlns="http://www.w3.org/2000/svg">
<metadata>
This is a custom SVG webfont generated by Font Squirrel.
</metadata>
<defs>
<font id="webfontb5K2fJwj" horiz-adv-x="386" >
<font-face units-per-em="1000" ascent="750" descent="-250" />
<missing-glyph horiz-adv-x="250" />
<glyph unicode=" "  horiz-adv-x="250" />
<glyph unicode="&#x09;" horiz-adv-x="250" />
<glyph unicode="&#xa0;" horiz-adv-x="250" />
<glyph unicode="!" horiz-adv-x="308" d="M28 102q0 41 31.5 73.5t82.5 32.5q52 0 85.5 -31t33.5 -75q0 -43 -33 -73t-86 -30q-48 0 -81 31.5t-33 71.5zM86 257l-54 252v190h239v-190l-53 -252h-132z" />
<glyph unicode="'" horiz-adv-x="273" d="M36 701h198l-36 -299h-125z" />
<glyph unicode="(" horiz-adv-x="388" d="M260 815l103 -106q-29 -36 -46 -59.5t-47 -76.5t-45.5 -119t-15.5 -142q0 -79 14.5 -147t41.5 -120t47.5 -82t50.5 -65l-103 -107q-94 85 -164.5 224.5t-70.5 296.5q0 83 24.5 166.5t62.5 148t75.5 111t72.5 77.5z" />
<glyph unicode=")" horiz-adv-x="388" d="M25 708l103 106q35 -31 72.5 -77.5t75.5 -111t62.5 -148t24.5 -166.5q0 -157 -70.5 -296.5t-164.5 -224.5l-103 107q30 35 50.5 65t47.5 82t41.5 120t14.5 147q0 76 -15.5 142t-45.5 119t-47 76.5t-46 59.5z" />
<glyph unicode="," horiz-adv-x="272" d="M109 -194l-115 65q56 71 79 144t16 181l182 -48q3 -95 -40 -183.5t-122 -158.5z" />
<glyph unicode="-" d="M47 172v133h290v-133h-290z" />
<glyph unicode="." horiz-adv-x="258" d="M15 104q0 42 31 78t82 36t83 -36t32 -78q0 -47 -30.5 -77.5t-84.5 -30.5q-48 0 -80.5 33t-32.5 75z" />
<glyph unicode="0" horiz-adv-x="599" d="M302 -12q-130 0 -208.5 93t-78.5 272q0 159 78.5 259t203.5 100q143 0 215 -97.5t72 -268.5q0 -168 -73.5 -263t-208.5 -95zM302 143q35 0 58 56.5t23 146.5q0 89 -25 147t-62 58q-30 1 -56.5 -55.5t-26.5 -142.5q0 -91 28 -150.5t61 -59.5z" />
<glyph unicode="1" horiz-adv-x="496" d="M71 457l-46 111l21 10l21 10l19 10q14 8 21 14l20 14q13 10 23 20l24 24q13 13 26 29h178v-566h93v-133h-400v133h100v371z" />
<glyph unicode="2" horiz-adv-x="590" d="M141 472l-108 114q107 124 260 124q102 0 170 -60t68 -159q0 -80 -34.5 -122.5t-125.5 -101.5q-42 -27 -88 -66.5t-62 -67.5h176v80h168v-213h-540v145q40 66 68.5 98.5t77.5 71.5q23 21 73.5 54.5t77 59t26.5 53.5q0 66 -84 66q-25 0 -50.5 -14.5t-37.5 -26t-35 -35.5z " />
<glyph unicode="3" horiz-adv-x="540" d="M248 -13q-69 0 -136 34t-97 79l102 106q65 -65 132 -65q42 0 66 20t24 57q0 73 -83 73h-75v119h73q37 0 61 18t24 51q0 38 -26.5 58.5t-61.5 20.5q-60 0 -117 -60l-97 117q32 35 92 65t122 30q121 0 188 -57.5t67 -154.5q0 -70 -74 -127q93 -67 93 -164q0 -104 -83 -162 t-194 -58z" />
<glyph unicode="4" horiz-adv-x="584" d="M10 197v143l288 359h207v-394h53v-108h-53v-65h54v-132h-324v132h63v65h-288zM150 305h148v185z" />
<glyph unicode="5" horiz-adv-x="577" d="M263 -13q-73 0 -144.5 36.5t-103.5 84.5l109 113q72 -74 140 -74q50 0 80 28t30 72q0 40 -29.5 68.5t-72.5 28.5q-50 0 -94 -46l-128 57l61 344h396v-149h-269l-17 -97q37 24 108 24q94 0 163.5 -63.5t69.5 -173.5q0 -61 -26 -110t-69 -79.5t-95.5 -47t-108.5 -16.5z" />
<glyph unicode="6" horiz-adv-x="581" d="M546 631l-68 -130q-87 51 -146 51q-54 -1 -88.5 -39.5t-42.5 -96.5q20 20 56.5 35t74.5 16q98 4 166 -59.5t68 -163.5q0 -104 -70 -176.5t-189 -76.5q-125 -4 -206 80.5t-85 232.5q-1 47 4 93.5t23 104t48.5 101t87 74.5t131.5 33q53 2 123.5 -20.5t112.5 -58.5zM306 323 q-59 -3 -103 -57q0 -43 24.5 -80.5t68.5 -37.5q38 0 65 25t26 61q-1 35 -20.5 62.5t-60.5 26.5z" />
<glyph unicode="7" horiz-adv-x="566" d="M15 501v198h541v-133l-269 -566h-216l268 566h-164v-65h-160z" />
<glyph unicode="8" horiz-adv-x="559" d="M15 205q0 50 30 101t78 75q-36 22 -55.5 58.5t-19.5 74.5q0 86 64 141.5t174 55.5q113 0 176 -55.5t63 -141.5q0 -47 -24 -83t-60 -53q49 -24 76 -72t27 -101q0 -94 -72.5 -156t-191.5 -62q-122 0 -193.5 61.5t-71.5 156.5zM188 211q0 -35 27.5 -58.5t65.5 -23.5 q39 0 65 21.5t27 60.5q0 46 -39.5 66.5t-87.5 22.5q-24 -14 -41 -38.5t-17 -50.5zM359 522q0 27 -22.5 45t-52.5 18q-29 0 -50.5 -19t-21.5 -44t19 -41t38.5 -20t41.5 -5q48 23 48 66z" />
<glyph unicode="9" horiz-adv-x="587" d="M35 70l68 130q87 -51 146 -51q57 2 90 37t32 99q-48 -48 -122 -51q-98 -4 -166 59.5t-68 163.5q0 104 70 176.5t189 76.5q126 4 209.5 -81t87.5 -232q1 -52 -4 -100.5t-24.5 -105t-51 -98.5t-88.5 -71t-132 -31q-53 -2 -123.5 20.5t-112.5 58.5zM275 378q50 2 94 57 q0 46 -20.5 82t-63.5 36q-38 0 -65 -25t-26 -61q1 -35 20.5 -62.5t60.5 -26.5z" />
<glyph unicode=":" horiz-adv-x="254" d="M15 98q0 42 30.5 77t80.5 35q51 0 82 -35.5t31 -76.5q0 -45 -31.5 -75.5t-81.5 -30.5q-47 0 -79 32.5t-32 73.5zM15 402q0 42 30.5 77t80.5 35q51 0 82 -35.5t31 -76.5q0 -46 -30.5 -76t-82.5 -30q-45 0 -78 33t-33 73z" />
<glyph unicode=";" horiz-adv-x="302" d="M59 385q0 42 31 78t82 36t83 -36t32 -78q0 -46 -31 -77t-84 -31q-46 0 -79.5 33.5t-33.5 74.5zM5 -129l115 -65q79 70 122 158.5t40 183.5l-182 48q7 -108 -16 -181t-79 -144z" />
<glyph unicode="=" horiz-adv-x="502" d="M44 172v133h412v-133h-412zM44 393v133h412v-133h-412z" />
<glyph unicode="?" horiz-adv-x="520" d="M110 477l-108 109q111 129 260 129q104 0 171 -53.5t67 -151.5q0 -36 -16.5 -66.5t-40 -51t-46.5 -37.5t-39.5 -34t-16.5 -33v-55h-185l-1 80q0 31 25 62t54.5 51.5t54.5 44t25 41.5q0 47 -74 47q-30 0 -65.5 -24t-64.5 -58zM129 102q0 41 31.5 73.5t82.5 32.5 q52 0 85.5 -31t33.5 -75q0 -43 -33 -73t-86 -30q-48 0 -81 31.5t-33 71.5z" />
<glyph unicode="@" horiz-adv-x="833" />
<glyph unicode="A" horiz-adv-x="823" d="M808 131v-131h-401v131h95l-21 68h-205l-21 -68h78v-131h-318v131h68l135 439h-41v129h384l177 -568h70zM378 535l-65 -216h131z" />
<glyph unicode="B" horiz-adv-x="687" d="M405 0h-380v130h58v440h-58v129h373q245 0 245 -171q0 -64 -21.5 -98.5t-76.5 -56.5q59 -16 95.5 -58.5t36.5 -111.5q0 -106 -64 -154.5t-208 -48.5zM370 130q33 0 57 23.5t24 62.5t-22 63.5t-62 24.5h-77v-174h80zM353 567h-63v-150h61q38 0 53 19.5t15 57.5 q0 34 -18.5 53.5t-47.5 19.5z" />
<glyph unicode="C" horiz-adv-x="686" d="M554 253l117 -128q-128 -141 -303 -141q-160 0 -256.5 96.5t-96.5 262.5q0 82 29 153.5t74 117t98 71.5t103 26q103 0 154 -68l23 56h157v-284h-179q-2 53 -29 89.5t-77 36.5q-53 0 -86 -57t-33 -141q0 -79 39 -133.5t107 -54.5q15 0 30.5 4t28.5 10t26 14.5t22.5 16.5 t19.5 17.5t15 15.5l11 13z" />
<glyph unicode="D" horiz-adv-x="720" d="M326 0h-301v133h62v434h-62v132h305q177 0 278.5 -96t101.5 -244q0 -171 -100 -265t-284 -94zM480 359q0 88 -37.5 148t-112.5 60h-38v-434h38q76 1 113 63.5t37 162.5z" />
<glyph unicode="E" horiz-adv-x="653" d="M25 567v132h603v-221h-173v89h-160v-138h190v-133h-190v-163h160v93h173v-226h-603v133h63v434h-63z" />
<glyph unicode="F" horiz-adv-x="638" d="M25 567v132h598v-221h-177v89h-151v-174h190v-133h-190v-127h102v-133h-372v133h62v434h-62z" />
<glyph unicode="G" horiz-adv-x="776" d="M521 0l-31 63q-18 -30 -62 -51t-99 -21q-134 0 -224 96.5t-90 255.5q0 158 92.5 263t214.5 105q34 0 63.5 -5.5t48 -12.5t34.5 -18t23.5 -18.5t15.5 -17.5t10 -12l21 72h149v-295h-179q-2 59 -35 93t-79 34q-59 0 -98 -55.5t-39 -132.5q0 -79 37 -131.5t100 -52.5 q68 0 96 49v42h-61v107h332v-107h-40v-250h-200z" />
<glyph unicode="H" horiz-adv-x="768" d="M25 567v132h324v-132h-62v-151h190v151h-59v132h325v-132h-58v-435h58v-132h-325v132h59v151h-190v-151h62v-132h-324v132h55v435h-55z" />
<glyph unicode="I" horiz-adv-x="382" d="M25 567v132h332v-132h-62v-434h62v-133h-332v133h63v434h-63z" />
<glyph unicode="J" horiz-adv-x="463" d="M21 -193l-1 132q20 -9 45 -9q83 0 83 144v494h-86v131h376v-131h-83v-494q0 -138 -66 -208t-216 -70q-25 0 -52 11z" />
<glyph unicode="K" horiz-adv-x="815" d="M340 699v-129h-54v-163l186 163h-72v129h333v-129h-58l-145 -125l202 -315h58v-130h-390v130h68l-108 170l-74 -63v-107h54v-130h-315v130h54v440h-54v129h315z" />
<glyph unicode="L" horiz-adv-x="610" d="M25 567v132h316v-132h-53v-434h129v127h168v-260h-560v133h55v434h-55z" />
<glyph unicode="M" horiz-adv-x="1008" d="M723 523h-4q-17 -93 -29 -134l-105 -389h-209l-112 399q-17 58 -21 124h-4v-394h57v-129h-271v129h54v441h-53v129h379l101 -374l96 374h381v-129h-55v-440h55v-130h-316v130h57l-1 334v59z" />
<glyph unicode="N" horiz-adv-x="816" d="M791 699v-129h-66v-570h-215l-255 381v-252h77v-129h-307v129h59v441h-58v129h287l246 -367l-1 238h-68v129h301z" />
<glyph unicode="O" horiz-adv-x="740" d="M373 -18q-163 0 -260.5 94.5t-97.5 276.5q0 162 98 263.5t253 101.5q179 0 269 -99t90 -273q0 -171 -92 -267.5t-260 -96.5zM373 139q47 0 74.5 56.5t27.5 150.5q0 97 -27.5 157.5t-82.5 60.5q-46 1 -74.5 -58.5t-28.5 -152.5q0 -97 31 -155.5t80 -58.5z" />
<glyph unicode="P" horiz-adv-x="640" d="M25 568v131h324q84 0 140.5 -16.5t85 -48.5t39.5 -67t11 -82q0 -95 -75 -146.5t-188 -51.5h-76v-155h61v-132h-322v132h56v436h-56zM336 569h-50v-174h45q44 0 71 22t27 61q0 44 -24.5 67.5t-68.5 23.5z" />
<glyph unicode="Q" horiz-adv-x="755" d="M357 0q-156 0 -249 91t-93 263q0 154 93 251t243 97q171 0 256.5 -94.5t85.5 -260.5q0 -159 -83 -250q17 -65 44 -65q20 0 20 45v29h66v-51q0 -70 -39 -115t-111 -45q-58 0 -97.5 31.5t-57.5 79.5q-36 -6 -78 -6zM357 347q58 0 112 -39q2 24 2 39q0 89 -33.5 149 t-87.5 60q-46 1 -80.5 -57.5t-34.5 -144.5q0 -32 4 -55q46 48 118 48zM357 150q28 0 53 22q-6 42 -17.5 63t-35.5 21q-41 0 -67 -73q30 -33 67 -33z" />
<glyph unicode="R" horiz-adv-x="737" d="M25 568v131h325q84 0 140.5 -15.5t85.5 -45.5t40 -64t11 -81q0 -57 -40.5 -96.5t-104.5 -48.5q53 -8 92 -48.5t39 -93.5q0 -68 24 -68q23 0 23 32v33h67v-55q0 -70 -34.5 -115t-111.5 -45q-97 0 -145.5 48.5t-48.5 137.5q0 70 -17.5 91.5t-82.5 21.5v-155h61v-132h-323 v132h56v436h-56zM337 569h-50v-170h45q44 0 70 21t26 60q0 89 -91 89z" />
<glyph unicode="S" horiz-adv-x="710" d="M200 0h-175v252h186q0 -30 13 -50.5t35 -30.5t40 -14t38 -5q85 0 85 50q0 18 -28.5 32t-71 23.5t-92.5 28t-92.5 42.5t-71 69t-28.5 105q0 53 23 95.5t59.5 68t76.5 38.5t79 13q155 0 209 -102l10 84h172v-251h-181q0 54 -36.5 85t-91.5 31q-25 0 -47 -14.5t-22 -38.5 q0 -28 41 -49t99 -39.5t116 -42.5t99 -71t41 -112q0 -56 -24 -98.5t-64 -66.5t-85 -35.5t-92 -11.5q-131 0 -209 92z" />
<glyph unicode="T" horiz-adv-x="701" d="M15 699h671v-260h-147v128h-84v-434h83v-133h-372v133h82v434h-86v-128h-147v260z" />
<glyph unicode="U" horiz-adv-x="737" d="M15 569v130h318v-129h-54v-216q0 -114 24 -154.5t76 -40.5q34 0 54 12.5t33.5 57t13.5 126.5v212h-54v132h296v-129h-54v-243q0 -344 -287 -344q-310 9 -310 339v247h-56z" />
<glyph unicode="V" horiz-adv-x="773" d="M420 224h5q3 45 36 127l91 218h-52l-1 130h284v-130h-49l-240 -569h-184l-265 569h-55v130h369l-1 -130h-54l85 -224q29 -88 31 -121z" />
<glyph unicode="W" horiz-adv-x="1015" d="M320 226h5q2 23 49 248l50 225h208l63 -276q19 -89 30 -197h5q8 87 30 191l34 152h-55v130h286v-130h-55l-149 -569h-237l-60 238q-13 48 -25 124h-4q-7 -50 -24 -122l-61 -240h-232l-132 569h-56v130h330v-130h-58l26 -146q14 -60 32 -197z" />
<glyph unicode="X" horiz-adv-x="835" d="M357 129v-129h-332v129h87l147 191l-181 249h-52v130h396v-130h-58l98 -133l102 133h-88v130h332v-130h-85l-151 -193l180 -246h58v-130h-399v130h57l-76 102l-21 28l-103 -131h89z" />
<glyph unicode="Y" horiz-adv-x="669" d="M369 384h4q2 9 37 86l55 101h-55v128h269v-128h-54l-185 -325v-116h56v-130h-320v130h57v118l-194 323h-49v128h342v-128h-52l58 -106q3 -8 16 -40t15 -41z" />
<glyph unicode="Z" horiz-adv-x="714" d="M201 436h-170v263h656l2 -133l-366 -434h185l1 128h177v-260h-661v130l364 437l-189 -1z" />
<glyph unicode="[" horiz-adv-x="720" d="M29 568v132h324q83 0 140 -19t85.5 -53t39.5 -71t11 -85q0 -105 -108 -165l112 -177h58v-130h-192l-166 268h-43v-136h61v-132h-322v132h56v436h-56zM340 569h-50v-174h45q44 0 71 22t27 61q0 44 -24.5 67.5t-68.5 23.5z" />
<glyph unicode="\" horiz-adv-x="653" />
<glyph unicode="]" horiz-adv-x="647" d="M331 0h-301v130h41v489h-41v131h231v-452l116 69h-72v133h280v-133h-77l-63 -37l139 -199h41v-131h-162l-168 239l-35 -24v-84h71v-131z" />
<glyph unicode="a" horiz-adv-x="600" d="M78 342l-42 116q118 71 218 71q49 0 93.5 -10t86 -32t66.5 -64.5t25 -99.5v-195h60v-128h-214l-24 45q-25 -34 -63 -49t-72 -15q-79 0 -138 43t-59 124q0 83 60.5 133.5t147.5 50.5q27 0 50.5 -8t34 -15t14.5 -12v35q0 56 -95 56q-66 0 -149 -46zM258 111q21 0 38.5 10 t25.5 23v38q-17 29 -59 29q-58 0 -58 -53q0 -21 15 -34t38 -13z" />
<glyph unicode="b" horiz-adv-x="656" d="M256 0h-225v130h42v489h-42v131h242v-289q16 19 55 33t76 14q109 0 170.5 -77.5t59.5 -184.5q-2 -117 -64 -187t-167 -70q-36 0 -62.5 7t-39.5 15t-30 23zM414 244q0 48 -20 85.5t-52 37.5q-31 0 -52.5 -35.5t-18.5 -92.5q0 -50 21.5 -85t50.5 -35q32 0 51.5 34t19.5 91z " />
<glyph unicode="c" horiz-adv-x="531" d="M360 274q-2 43 -17 74t-46 31q-42 0 -65 -37.5t-23 -90.5q0 -50 28 -83.5t75 -34.5q68 -1 121 57l88 -102q-39 -43 -104 -72.5t-141 -29.5q-117 0 -196 70t-79 197q0 125 71 190.5t175 65.5q77 0 125 -57l17 48h118v-226h-147z" />
<glyph unicode="d" horiz-adv-x="634" d="M368 472v148h-46v130h249v-620h48v-130h-234l-17 37q-50 -46 -126 -46q-103 0 -167.5 78t-64.5 186q0 113 68 184t164 71q66 0 126 -38zM225 255q0 -48 20 -85.5t52 -37.5q31 0 52.5 35.5t18.5 92.5q0 50 -21.5 85t-50.5 35q-32 0 -51.5 -34t-19.5 -91z" />
<glyph unicode="e" horiz-adv-x="542" d="M443 166l84 -97q-101 -87 -258 -87q-105 0 -184.5 69t-79.5 202q0 120 76 190.5t193 70.5q88 0 152.5 -40.5t86.5 -104.5q11 -32 13.5 -76t-11.5 -93h-315q3 -15 7 -25t14.5 -25.5t31.5 -23.5t50 -8q82 0 140 48zM280 379q-40 0 -57.5 -26t-19.5 -54h151q-1 36 -16 58 t-58 22z" />
<glyph unicode="f" d="M411 743l-60 -115q-22 10 -55 10q-32 0 -32 -53v-85h91v-130h-91v-239h60v-131h-298v131h40v239h-41v130h41v85q0 21 3 41t15 47.5t32 47t58.5 33.5t89.5 14q39 0 83 -7.5t64 -17.5z" />
<glyph unicode="g" horiz-adv-x="640" d="M24 -117l53 111q24 -21 74 -42.5t100 -21.5q61 0 88.5 28t27.5 66v34q-43 -55 -117 -55q-120 0 -180 72.5t-60 177.5q0 119 65 188t186 69q31 0 60.5 -12.5t45.5 -28.5l20 31h238v-131h-60v-299q0 -128 -79 -201t-233 -74q-74 1 -133 27.5t-96 60.5zM223 255 q0 -48 20 -85.5t52 -37.5q31 0 52.5 35.5t18.5 92.5q0 50 -21.5 85t-50.5 35q-32 0 -51.5 -34t-19.5 -91z" />
<glyph unicode="h" horiz-adv-x="661" d="M339 131v-131h-314v131h42v489h-42v130h242v-312q12 20 60.5 50t96.5 30q55 0 92 -18.5t54 -53t23 -68.5t6 -80v-167h47v-131h-257v272q0 19 -1 30t-6 28t-18 26t-34 9q-63 0 -63 -93v-141h72z" />
<glyph unicode="i" horiz-adv-x="330" d="M305 131v-131h-280v131h42v239h-42v130h232v-369h48zM53 646q0 38 29.5 70t78.5 32t79.5 -32t30.5 -70q0 -43 -29.5 -72t-80.5 -29q-45 0 -76.5 31.5t-31.5 69.5z" />
<glyph unicode="j" horiz-adv-x="360" d="M128 70v300h-42v130h232v-430q0 -42 -6 -77t-25 -74t-51 -66t-88.5 -44.5t-133.5 -17.5v134q33 0 56 11.5t34 25t17 38t6.5 36.5t0.5 34zM114 646q0 38 29.5 70t78.5 32t79.5 -32t30.5 -70q0 -43 -29.5 -72t-80.5 -29q-45 0 -76.5 31.5t-31.5 69.5z" />
<glyph unicode="k" horiz-adv-x="654" d="M305 0h-267v130h41v489h-41v131h231v-452l116 69h-72v132h280v-132h-77l-68 -43l135 -193h50v-131h-296v131h42l-76 108l-35 -24v-84h37v-131z" />
<glyph unicode="l" horiz-adv-x="332" d="M317 131v-131h-292v131h43v490h-42v129h232v-619h59z" />
<glyph unicode="m" horiz-adv-x="908" d="M322 131v-131h-297v131h42v236h-42v132h189l22 -59q61 73 125 73q35 0 62.5 -7t45 -20.5t25 -22.5t16.5 -22q64 72 147 72q58 0 97 -19.5t57.5 -56t25.5 -74.5t7 -90v-138h49v-135h-254v245q0 6 0.5 21.5t0.5 24.5t-1 22.5t-3.5 22t-6.5 17t-11 12.5t-17 4 q-30 0 -41.5 -18.5t-11.5 -54.5v-162h60v-134h-259v255q0 67 -7 90.5t-35 23.5q-45 0 -45 -60v-178h60z" />
<glyph unicode="n" horiz-adv-x="647" d="M333 131v-131h-308v131h42v239h-42v130h213l23 -62q58 80 143 80q45 0 78.5 -13t52.5 -33.5t30.5 -51t15.5 -59t4 -63.5v-167h47v-131h-252v273v23q0 6 -2.5 23.5t-8 24.5t-17 14.5t-28.5 7.5q-63 0 -63 -93v-142h72z" />
<glyph unicode="o" horiz-adv-x="574" d="M290 -13q-116 0 -198 69.5t-81 195.5q1 119 82.5 189.5t191.5 70.5q122 -2 199 -72t79 -192q1 -121 -77 -191t-196 -70zM290 115q31 0 49.5 37.5t18.5 95.5t-19.5 95.5t-53.5 38.5q-29 0 -49 -38t-20 -93q0 -61 21 -98.5t53 -37.5z" />
<glyph unicode="p" horiz-adv-x="638" d="M413 244q0 48 -20 85.5t-52 37.5q-31 0 -52.5 -35.5t-18.5 -92.5q0 -50 21.5 -85t50.5 -35q32 0 51.5 34t19.5 91zM25 -204v131h42v440h-42v133h229l17 -35q58 43 121 43q112 0 174 -75t62 -187q0 -117 -64.5 -187t-163.5 -70q-84 0 -130 39v-101h54v-131h-299z" />
<glyph unicode="q" horiz-adv-x="660" d="M383 257q0 48 -20 85.5t-52 37.5q-31 0 -52.5 -35.5t-18.5 -92.5q0 -50 21.5 -85t50.5 -35q32 0 51.5 34t19.5 91zM318 -230v131h65v132q-51 -42 -128 -42q-98 0 -164 72t-66 190q0 125 67 191t172 66q43 0 76 -13.5t43 -26.5l19 30h233v-130h-49v-466h49v-134h-317z" />
<glyph unicode="r" horiz-adv-x="414" d="M308 131v-131h-283v131h44v239h-43v130h188l30 -64q12 22 21.5 34.5t26.5 27t43.5 21t63.5 6.5v-180q-72 0 -106.5 -24t-34.5 -87v-103h50z" />
<glyph unicode="s" horiz-adv-x="508" d="M140 0h-125v180h134q0 -24 21.5 -40.5t43.5 -21.5t41 -5q44 0 44 34q0 9 -8 15.5t-23.5 11.5l-31.5 10l-42 10q-24 7 -42 13q-133 47 -133 160q0 70 56.5 107.5t119.5 37.5q50 0 91.5 -22.5t57.5 -55.5l8 66h123v-180h-130q0 31 -31.5 53.5t-70.5 22.5t-39 -36 q0 -8 6 -14.5t20 -13t25 -10.5t35 -12l37 -12q39 -13 59 -22t48 -27.5t41 -46t13 -64.5q0 -68 -55 -109t-131 -41q-51 0 -92.5 21t-60.5 52z" />
<glyph unicode="t" horiz-adv-x="363" d="M15 370v130h54v92l184 59v-151h95v-130h-95v-178q0 -4 -0.5 -14.5t0 -16.5t1 -14.5t2.5 -13.5t5.5 -10.5t9.5 -8t14 -2.5q23 0 63 17v-128q-20 -8 -59.5 -13.5t-61.5 -5.5q-44 0 -73.5 10.5t-46 25.5t-25 46t-10.5 56t-3 72v178h-54z" />
<glyph unicode="u" horiz-adv-x="631" d="M15 368v132h242v-241q0 -66 12 -96t42 -30q27 0 45 21.5t18 54.5v159h-66v132h259v-367h49v-133h-189l-27 63l-10 -11q-10 -12 -14 -16l-14 -14q-11 -10 -20 -14t-22 -10.5t-28.5 -9t-33.5 -2.5q-111 0 -156 58t-45 186v138h-42z" />
<glyph unicode="v" horiz-adv-x="613" d="M326 162h4q2 46 30 110l48 101h-53v127h258v-127h-52l-173 -373h-155l-186 373h-47v127h304v-127h-50l46 -106q22 -65 26 -105z" />
<glyph unicode="w" horiz-adv-x="872" d="M282 153h2q10 131 41 235l32 112h185l38 -130q29 -92 43 -217h2q9 94 27 158l17 59h-41v130h244v-130h-41l-117 -370h-211l-69 226l-72 -226h-206l-113 370h-43v130h269v-130h-34l22 -73q20 -68 25 -144z" />
<glyph unicode="x" horiz-adv-x="649" d="M375 375v125h255v-125h-66l-106 -107l126 -144h47v-124h-319v124h47l-76 81l-72 -81h65v-124h-256v124h67l102 115l-124 136h-45v125h324v-125h-47l70 -76l75 76h-67z" />
<glyph unicode="y" horiz-adv-x="580" d="M317 217l65 156h-46v127h254v-124h-48l-190 -462q-11 -24 -19.5 -39t-26.5 -37t-39 -34.5t-54.5 -21.5t-75.5 -9q-68 4 -121 50l75 118q33 -29 58 -34q22 -4 39 12t25 41l14 42l-195 370h-41v128h308v-127h-47z" />
<glyph unicode="z" horiz-adv-x="553" d="M155 300h-130v200h495v-129l-238 -240h105v68h141v-199h-503v131l241 240h-111v-71z" />
<glyph unicode="&#xad;" d="M47 172v133h290v-133h-290z" />
<glyph unicode="&#x2000;" horiz-adv-x="407" />
<glyph unicode="&#x2001;" horiz-adv-x="815" />
<glyph unicode="&#x2002;" horiz-adv-x="407" />
<glyph unicode="&#x2003;" horiz-adv-x="815" />
<glyph unicode="&#x2004;" horiz-adv-x="271" />
<glyph unicode="&#x2005;" horiz-adv-x="203" />
<glyph unicode="&#x2006;" horiz-adv-x="135" />
<glyph unicode="&#x2007;" horiz-adv-x="135" />
<glyph unicode="&#x2008;" horiz-adv-x="101" />
<glyph unicode="&#x2009;" horiz-adv-x="163" />
<glyph unicode="&#x200a;" horiz-adv-x="45" />
<glyph unicode="&#x2010;" d="M47 172v133h290v-133h-290z" />
<glyph unicode="&#x2011;" d="M47 172v133h290v-133h-290z" />
<glyph unicode="&#x2013;" horiz-adv-x="447" d="M32 172v133h377v-133h-377z" />
<glyph unicode="&#x2014;" horiz-adv-x="631" d="M42 172v133h539v-133h-539z" />
<glyph unicode="&#x2019;" horiz-adv-x="273" d="M36 701h198l-36 -299h-125z" />
<glyph unicode="&#x2022;" horiz-adv-x="348" d="M60 322q0 42 31 78t82 36t83 -36t32 -78q0 -47 -30.5 -77.5t-84.5 -30.5q-48 0 -80.5 33t-32.5 75z" />
<glyph unicode="&#x2026;" horiz-adv-x="774" d="M531 104q0 42 31 78t82 36t83 -36t32 -78q0 -47 -30.5 -77.5t-84.5 -30.5q-48 0 -80.5 33t-32.5 75zM273 104q0 42 31 78t82 36t83 -36t32 -78q0 -47 -30.5 -77.5t-84.5 -30.5q-48 0 -80.5 33t-32.5 75zM15 104q0 42 31 78t82 36t83 -36t32 -78q0 -47 -30.5 -77.5 t-84.5 -30.5q-48 0 -80.5 33t-32.5 75z" />
<glyph unicode="&#x202f;" horiz-adv-x="163" />
<glyph unicode="&#x205f;" horiz-adv-x="203" />
<glyph unicode="&#x2122;" horiz-adv-x="1709" d="M1424 523h-4q-17 -93 -29 -134l-105 -389h-209l-112 399q-17 58 -21 124h-4v-394h57v-129h-271v129h54v441h-53v129h379l101 -374l96 374h381v-129h-55v-440h55v-130h-316v130h57l-1 334v59zM15 699h671v-260h-147v128h-84v-434h83v-133h-372v133h82v434h-86v-128h-147 v260z" />
</font>
</defs>
</svg>
